website statistics
The Wolf of Wall Street (2013) 초고화질 BluRay HEVC x265 English AC3... > 영화 > 대한민국 No.1 바다보아

팝업레이어 알림

ibekr_block.png
 [구글검색] 구글에서 바다보아 검색 - 구글에서 토렌트를 검색하실 때에 검색어 뒤에 바다보아를 꼭 붙여서 검색하세요.     바다보아에서 광고중인 웹에 문제가 있다면 상단에 나와 있는 운영자 이메일로 연락 주십시오.     다운로드가 완료될 때까지 저희가 함께하겠습니다. 편안한 시간 되십시오.

웹하드 찐플

   

   

   

The Wolf of Wall Street (2013) 초고화질 BluRay HEVC x265 English AC3...

The-Wolf-of-Wall-Street-2013.jpg



Release Title
The Wolf of Wall Street (2013) 초고화질 BluRay HEVC x265 English AC3 5.1 - MeGUiL

IMDB Link
https://www.imdb.com/title/tt0993846/

IMDb Rating
8.2/10 (1,178,454 user)

Screens2.png

vlcsnap-2021-01-14-00h13m39s071.png

vlcsnap-2021-01-14-00h13m53s117.png

vlcsnap-2021-01-14-00h09m24s313.png

vlcsnap-2021-01-14-00h10m48s116.png

vlcsnap-2021-01-14-00h12m42s738.png

vlcsnap-2021-01-14-00h13m02s312.png



Info.png

The-Wolf-of-Wall-Street-2013.jpg



Release Title
The Wolf of Wall Street (2013) 초고화질 BluRay HEVC x265 English AC3 5.1 - MeGUiL

IMDB Link
https://www.imdb.com/title/tt0993846/

IMDb Rating
8.2/10 (1,178,454 user)

Screens2.png

vlcsnap-2021-01-14-00h13m39s071.png

vlcsnap-2021-01-14-00h13m53s117.png

vlcsnap-2021-01-14-00h09m24s313.png

vlcsnap-2021-01-14-00h10m48s116.png

vlcsnap-2021-01-14-00h12m42s738.png

vlcsnap-2021-01-14-00h13m02s312.png



Info.png


Code:


General
Format : Matroska
Format version : Version 4
File size : 3.08 GiB
Duration : 2 h 59 min
Overall bit rate : 2 452 kb/s
Movie name : The Wolf of Wall Street (2013) 초고화질 BluRay HEVC x265 English AC3 5.1 - MeGUiL
Encoded date : UTC 2021-01-10 15:57:57
Writing application : mkvmerge v52.0.0 (Secret For The Mad) 64-bit
Writing library : libebml v1.4.1 + libmatroska v1.6.2

Video
ID : 1
Format : HEVC
Format/Info : High Efficiency Video Coding
Format profile : Main [email protected]@Main
Codec ID : V_MPEGH/ISO/HEVC
Duration : 2 h 59 min
Bit rate : 2 002 kb/s
Width : 1 920 pixels
Height : 800 pixels
Display aspect ratio : 2.40:1
Frame rate mode : Constant
Frame rate : 23.976 (24000/1001) FPS
Color space : YUV
Chroma subsampling : 4:2:0
Bit depth : 10 bits
Bits/(Pixel*Frame) : 0.054
Stream size : 2.52 GiB (82%)
Title : The Wolf of Wall Street (2013) 초고화질 BluRay HEVC x265 English AC3 5.1 - MeGUiL
Writing library : x265 3.3+4-rarbg-30eb4de83092:[Linux][GCC 8.3.1][64 bit] 10bit
Encoding settings : cpuid=1111039 / frame-threads=4 / wpp / no-pmode / no-pme / no-psnr / no-ssim / log-level=2 / input-csp=1 / input-res=1920x800 / interlace=0 / total-frames=0 / level-idc=0 / high-tier=1 / uhd-bd=0 / ref=4 / no-allow-non-conformance / no-repeat-headers / annexb / no-aud / no-hrd / info / hash=0 / no-temporal-layers / open-gop / min-keyint=23 / keyint=250 / gop-lookahead=0 / bframes=4 / b-adapt=2 / b-pyramid / bframe-bias=0 / rc-lookahead=25 / lookahead-slices=4 / scenecut=40 / hist-scenecut=0 / radl=0 / no-splice / no-intra-refresh / ctu=64 / min-cu-size=8 / rect / no-amp / max-tu-size=32 / tu-inter-depth=1 / tu-intra-depth=1 / limit-tu=0 / rdoq-level=2 / dynamic-rd=0.00 / no-ssim-rd / signhide / no-tskip / nr-intra=0 / nr-inter=0 / no-constrained-intra / strong-intra-smoothing / max-merge=3 / limit-refs=3 / limit-modes / me=3 / subme=3 / merange=57 / temporal-mvp / no-frame-dup / no-hme / weightp / no-weightb / no-analyze-src-pics / deblock=0:0 / no-sao / no-sao-non-deblock / rd=4 / selective-sao=0 / no-early-skip / rskip / no-fast-intra / no-tskip-fast / no-cu-lossless / no-b-intra / no-splitrd-skip / rdpenalty=0 / psy-rd=2.00 / psy-rdoq=1.00 / no-rd-refine / no-lossless / cbqpoffs=0 / crqpoffs=0 / rc=abr / bitrate=2000 / qcomp=0.60 / qpstep=4 / stats-write=0 / stats-read=2 / cplxblur=20.0 / qblur=0.5 / ipratio=1.40 / pbratio=1.30 / aq-mode=3 / aq-strength=1.00 / cutree / zone-count=0 / no-strict-cbr / qg-size=32 / no-rc-grain / qpmax=69 / qpmin=0 / no-const-vbv / sar=1 / overscan=0 / videoformat=5 / range=0 / colorprim=2 / transfer=2 / colormatrix=2 / chromaloc=0 / display-window=0 / cll=0,0 / min-luma=0 / max-luma=1023 / log2-max-poc-lsb=8 / vui-timing-info / vui-hrd-info / slices=1 / no-opt-qp-pps / no-opt-ref-list-length-pps / no-multi-pass-opt-rps / scenecut-bias=0.05 / hist-threshold=0.01 / no-opt-cu-delta-qp / no-aq-motion / no-hdr10 / no-hdr10-opt / no-dhdr10-opt / no-idr-recovery-sei / analysis-reuse-level=0 / analysis-save-reuse-level=0 / analysis-load-reuse-level=0 / scale-factor=0 / refine-intra=0 / refine-inter=0 / refine-mv=1 / refine-ctu-distortion=0 / no-limit-sao / ctu-info=0 / no-lowpass-dct / refine-analysis-type=0 / copy-pic=1 / max-ausize-factor=1.0 / no-dynamic-refine / no-single-sei / no-hevc-aq / no-svt / no-field / qp-adaptation-range=1.00 / no-scenecut-aware-qpconformance-window-offsets / right=0 / bottom=0
Default : Yes
Forced : No

Audio
ID : 2
Format : AC-3
Format/Info : Audio Coding 3
Commercial name : Dolby Digital
Codec ID : A_AC3
Duration : 2 h 59 min
Bit rate mode : Constant
Bit rate : 448 kb/s
Channel(s) : 6 channels
Channel layout : L R C LFE Ls Rs
Sampling rate : 48.0 kHz
Frame rate : 31.250 FPS (1536 SPF)
Bit depth : 16 bits
Compression mode : Lossy
Stream size : 576 MiB (18%)
Title : AC3 448 kbps 5.1 - MeGUiL
Language : English
Service kind : Complete Main
Default : Yes
Forced : No

Text
ID : 3
Format : UTF-8
Codec ID : S_TEXT/UTF8
Codec ID/Info : UTF-8 Plain Text
Duration : 2 h 52 min
Bit rate : 98 b/s
Count of elements : 3727
Stream size : 124 KiB (0%)
Language : English
Default : No
Forced : No


Greets
Noir, Ex0duS5150, theeshiznit, MisterQ, KiNs, miok, Silmarillion, Mr. Blue, 1337x, ProStyleX, TorrentGalaxy, Demonoid, KAT and many more ;)

Join me. I’m on
Wire, search for @meguil

Note: A video sample is included in the folder for those who want to check quality and compatibility before downloading the whole movie.

The Wolf of Wall Street (2013) 초고화질 BluRay HEVC x265 English AC3...
번역하기: 한국 한국어


<< 이 게시판에서 관련된 자료 목록 >>
 [구글검색] 구글에서 바다보아 검색 - 구글에서 토렌트를 검색하실 때에 검색어 뒤에 바다보아를 꼭 붙여서 검색하세요.     바다보아에서 광고중인 웹에 문제가 있다면 상단에 나와 있는 운영자 이메일로 연락 주십시오.     다운로드가 완료될 때까지 저희가 함께하겠습니다. 편안한 시간 되십시오.

웹하드 도도파일

   

   

   
New
Hur찼 (1989) download

새글 Hur찼

댓글 0 | 조회 8

IMFORMATION STORE

상단으로 가운데로 하단으로